#TITLE:Natsu Machi;
#SUBTITLE:- ARIA the NATURAL 1st Ending;
#ARTIST:ROUND TABLE feat. Nino;
#TITLETRANSLIT:;
#SUBTITLETRANSLIT:;
#ARTISTTRANSLIT:;
#CREDIT:LK4D4;
#BANNER:ARIAbannervid.avi;
#BACKGROUND:ARIA bg1.jpg;
#LYRICSPATH:ARIA Natsu.lrc;
#CDTITLE:lkred1.png;
#MUSIC:ARIA Natsu.mp3;
#OFFSET:-0.116;
#SAMPLESTART:14.197;
#SAMPLELENGTH:12.000;
#SELECTABLE:YES;
#DISPLAYBPM:121.000;
#BPMS:0.000=121.493,22.500=90.013,22.750=60.013,23.000=50.013,23.250=30.013,23.500=15.013,24.000=80.993;
#STOPS:;
#BGCHANGES:7.250=ARIAE1Video.avi=1.000=1=0=0,
129.000=ARIA bg2.jpg=1.000=1=0=0,
99999=-nosongbg-=1.000=0=0=0 // don't automatically add -songbackground-
;
// cache tags:
#FIRSTBEAT:1.000;
#LASTBEAT:131.000;
#SONGFILENAME:songs/Otaku's Dream 3rd Anime Mix/[LK4D4] Natsu Machi - ARIA The NATURAL 1st ED/ARIA Natsu.sm;
#HASMUSIC:1;
#HASBANNER:1;
#MUSICLENGTH:97.758;
// end cache tags

//---------------dance-single - Basic----------------
#NOTES:
     dance-single:
     Basic:
     Easy:
     3:
     0.178,0.268,0.246,0.082,0.005,90.000,24.000,8.000,0.000,0.000:






0000
0000
1000
0000
,
0000
0001
0000
0000
,
1000
0000
0000
1000
,
0000
0000
0100
0000
,
0000
0010
0000
0000
,
0001
0000
0000
0000
0000
0000
0000
0000
0000
0000
0000
0000
0000
0000
0000
0000
0000
1000
0000
0000
0000
0000
0000
0000
,
1000
0100
0010
0001
,
0100
0000
0001
0000
2000
0000
0000
3000
,
0001
0010
0001
0100
,
0010
0000
1001
1001
,
0000
0101
0000
1100
,
0000
1010
0000
0011
,
0000
1001
0000
0000
,
0001
0100
0010
2000
,
3001
1000
0000
0110
,
0110
0000
1000
0100
,
1100
0000
0011
0000
,
0001
2000
0000
0000
,
3010
0000
0001
0100
,
0010
1000
0100
0010
,
0001
0100
0110
1001
,
0110
1000
0100
0010
,
0100
1000
0010
0100
,
0001
0010
0100
1000
,
0010
1000
1010
1100
,
0011
0101
1001
0220
,
0330
0000
0001
0100
,
0010
0100
0002
0003
,
0000
0100
0010
1000
,
0100
0010
0001
0100
,
0010
1000
1010
1010
,
1010
0000
2002
0000
,
0000
0000
0000
3003
;

//---------------dance-single - Standard----------------
#NOTES:
     dance-single:
     Standard:
     Medium:
     5:
     0.285,0.285,0.286,0.246,0.312,143.000,28.000,24.000,0.000,0.000:

0000
0000
0100
1000
0002
0000
0000
0000
,
0000
0003
0000
0000
0001
0000
0200
0300
,
1001
0000
0000
0110
0000
0000
1010
0000
,
0000
0000
0000
0000
1000
0100
0010
0000
,
0000
0000
0010
0001
0100
0000
0100
0010
,
1000
0000
0000
0000
0000
0000
0000
0000
0000
0000
0000
0000
0000
0000
0000
0000
0000
0000
0000
0000
0000
0000
0000
0000
1000
0000
0000
0000
0000
0000
0100
0000
0000
0000
0020
0000
0000
0000
0000
0000
0000
0000
0000
0000
0000
0030
0000
0000
,
0011
0000
0100
1000
0000
1000
0001
0000
0001
0000
0100
0000
,
0100
0000
0100
0010
0000
0010
1000
0000
2000
0000
3000
0000
,
0010
0000
0010
0100
0000
0001
0010
0000
0110
0000
0000
0100
,
1000
0000
0020
0000
0000
0000
0000
0000
0000
0030
0000
0000
,
1000
0000
0010
0100
0000
0010
1000
0000
0100
0000
0010
0010
,
0100
0000
0010
0001
0000
0100
0020
0200
0000
0330
0000
0000
,
1000
0000
0001
0100
0000
0100
0110
0000
1001
0000
0000
0010
,
0100
0000
0000
0000
0000
2020
0000
0000
0000
0000
0000
0000
0000
0000
0000
3030
0000
0000
0000
0000
0000
0000
0000
0000
,
0000
0000
0000
0100
0001
1000
0010
0000
0202
0000
0000
0000
,
0303
0000
0000
1000
0000
0100
1000
0000
0100
0010
0000
0010
,
0001
0100
0010
0000
0000
1010
0000
1000
1000
0000
0000
0000
,
0000
0000
1010
0000
2200
0000
0000
0000
0000
0000
0000
0000
0000
0000
0000
0000
0000
0000
0000
0000
0000
3300
0000
0000
,
0000
0000
0000
0000
0000
0000
0100
0100
0000
0010
0000
0000
,
0100
1000
0010
0000
0000
0010
0100
0000
0001
0000
0001
0100
,
0010
1000
1010
1100
,
0011
0000
0110
0000
0000
1000
0010
0000
0202
0000
0000
0000
,
0000
0000
0000
0303
0000
0000
0000
0000
0000
0000
0000
0000
0010
0000
0000
0000
0000
0000
0010
0000
1000
0000
0001
0000
,
1000
0000
0100
0000
0000
0001
0000
0010
0100
0000
1000
0000
,
1010
0100
1100
0011
,
0101
0000
0000
1010
0000
0000
1100
0000
0220
0000
0000
0000
,
0330
0000
0000
0000
0000
0000
1000
0100
0010
0001
0000
0000
,
1000
0000
0000
0010
0100
0020
0000
0000
0000
0030
0000
0000
,
0002
1000
0203
1000
,
0320
0001
2030
0001
,
3010
0000
0110
1010
,
0011
0000
0220
0000
,
0000
0000
0000
0330
;

//---------------dance-single - Heavy----------------
#NOTES:
     dance-single:
     Heavy:
     Hard:
     7:
     0.371,0.402,0.276,0.297,0.481,198.000,27.000,29.000,0.000,3.000:

0000
0000
2002
0000
,
3003
1000
0002
0203
,
1000
0300
0000
1000
0100
0001
0001
1000
,
0000
0000
0000
1000
0100
0000
0000
0000
,
0000
0000
0010
0000
0000
0000
0010
0001
,
0200
0000
0000
0000
0000
0000
0000
0000
0000
0000
0000
0000
0000
0000
0000
0000
0000
0000
0000
0000
0000
0000
0000
0000
0020
0000
0000
0000
0000
0000
2000
0000
0000
0000
0002
0000
0000
0000
0000
0000
0000
0000
0000
0000
0000
3333
0000
0000
,
1000
0000
0000
0100
0000
0000
0010
0001
0100
0010
0000
0000
,
1000
0000
1000
1010
0000
1000
1100
0000
0100
0011
0000
0000
,
1000
0000
0000
0010
0000
0000
0100
0001
0100
2000
0000
0000
,
0002
0000
3000
0000
0000
0000
0203
0000
0000
0300
0000
0000
1000
0000
0010
0000
0100
0000
0001
0000
0000
0000
0000
0000
,
1000
0000
0000
0100
0000
0000
0010
0001
0100
0020
0000
0000
,
1000
0000
0000
0100
0000
1000
0001
0001
0000
0030
0000
0000
,
1000
0000
0000
0100
0000
0010
0110
0000
0101
0000
0000
0000
,
0100
0000
1000
0100
0000
0001
0010
0000
0100
0001
0000
0000
,
1000
0000
0000
0001
1000
0010
0100
0000
0200
0300
0010
1010
,
1010
0000
0000
0000
0000
0000
0000
0000
0000
0000
0000
0000
1000
0000
0000
0000
0000
0000
0000
0000
0200
0000
0000
0000
1000
0000
0000
0300
0000
0000
0000
0000
0200
0000
0000
0000
0010
0000
0000
0300
0000
0000
0000
0000
0200
0000
0000
0000
,
0001
0010
0310
0000
0000
1000
0010
0110
0210
0000
0300
0100
,
1000
0000
0011
0000
0022
0000
0000
0000
0000
0000
0000
0000
0000
0000
0000
0000
0000
0000
0000
0000
0000
0033
0000
0000
,
0000
0000
0000
1000
0100
0000
1001
1001
0000
0100
0010
1000
,
0201
1000
1300
0000
0000
0001
0010
0000
2100
0000
3010
0020
,
0100
0030
0000
0000
0000
0000
0001
0000
0000
0000
0000
0000
1100
0000
1100
0000
1100
0000
0110
0000
0110
0000
0110
0000
,
0101
0000
0101
1100
0000
0000
1000
0000
0010
0100
0000
0000
,
0001
0000
0010
0100
0000
0000
1010
0000
0100
0100
0001
0001
,
0010
0100
1000
0000
0000
0000
0100
0002
0010
0000
0100
0103
,
1000
0000
0000
0010
0000
1000
0100
0001
0100
1000
0000
0010
,
0001
0000
0010
0000
1000
0000
0200
0000
0000
0300
0001
0000
1000
0000
0010
0000
0001
0000
0100
0000
1000
0000
0001
0000
,
0010
1000
0100
0010
0000
0000
0001
0001
0100
0010
0000
0000
,
1000
0000
0000
0200
0020
2002
0000
0000
0000
0000
0000
0000
,
3333
0000
0000
0000
0000
0000
1000
0010
0100
0001
0000
0000
,
0010
0100
1000
0010
0000
0000
0100
0001
0010
0100
0000
0000
,
1000
0010
0100
0001
0000
0000
1000
1000
0010
0010
0100
0100
,
0001
0001
0010
0010
0100
0100
2000
0000
0000
0000
0000
0000
,
0000
0000
0000
3000
;

//---------------dance-single - Blank----------------
#NOTES:
     dance-single:
     Blank:
     Challenge:
     8:
     0.495,0.503,0.675,0.246,0.706,249.000,66.000,24.000,0.000,1.000:

0000
0000
0101
0110
2020
0000
0000
0000
,
0000
3030
1100
0000
0110
0000
0101
0000
,
1000
0100
0001
0100
1000
0100
0001
0100
,
1000
0000
0100
1000
0010
1000
0100
1000
0010
0000
0000
0000
0000
0000
1000
0000
,
0010
0100
0001
0000
0010
0001
1000
0100
,
0020
0000
0000
0000
0000
0000
0000
0000
0000
0000
0000
0000
0030
0000
0000
0000
0000
0000
0000
0000
0000
0000
0000
0000
1000
0000
0000
0000
0000
0000
0001
0000
0000
0000
0220
0000
0000
0000
0000
0000
0000
0000
0000
0000
0000
0330
0000
0000
,
1000
0000
1000
1100
0000
0100
0101
0000
0110
0000
1000
0000
,
1000
0000
0010
0110
0000
0010
0011
0000
0110
0000
0000
0000
,
1000
0000
1000
1100
0000
1001
1010
0000
0110
0000
0000
0010
,
1000
0000
2200
0000
0000
0000
0001
0000
0000
3300
0000
0000
,
0001
0000
0010
0011
0000
0100
0101
0000
1010
0000
1000
0001
,
0101
0000
0001
0011
0000
1000
1100
0220
0000
0000
0330
0000
,
0100
0000
0010
0100
0000
1100
0110
0000
0022
0000
0033
0001
,
0100
0000
0000
0000
2020
0000
0000
0000
0000
0000
0000
0000
0000
0000
3030
0000
0000
0000
0100
0010
0100
0000
0010
0000
,
0010
0000
0000
1000
0010
1000
0010
0000
0101
0000
1010
0110
,
0101
0000
0000
1000
0000
0001
1000
0000
0001
0100
0000
0100
,
0001
0100
1100
0000
0000
1100
0000
0110
0011
0000
0000
1010
,
0000
0110
0101
0001
0100
0001
0010
0001
0100
0010
0000
0000
,
0000
0000
1000
0100
0010
0001
1000
0100
0010
0001
1000
0000
1100
0000
0110
0000
0000
0000
1000
0000
0010
0000
0100
0000
,
1010
0110
0101
0000
0000
0001
0010
0000
1100
0000
0001
0010
,
0101
0000
0000
0110
0000
0010
1000
0010
0100
0010
1000
0010
,
0110
0000
0000
0000
0101
0000
0000
0000
0000
0000
1000
0000
0010
0000
0000
0000
2000
0000
0001
0010
0001
0000
0100
0000
,
3010
0001
1000
0100
1000
0000
0010
0000
0100
0000
0010
0000
1010
0000
0000
0000
1000
0000
0001
0000
0010
0000
0100
0000
,
1100
0010
0001
0000
0000
0001
0000
0001
1000
0000
0010
0100
,
0001
0000
0000
0000
0000
0000
0101
0000
0010
0000
1000
0000
0100
1000
0100
0000
0010
0000
0011
0000
0000
0000
0001
0000
,
0100
0001
0100
0000
0010
0000
1010
0000
0000
0000
1000
0000
0100
1000
0010
0000
0100
0000
0001
0010
0001
0000
0100
0000
,
0010
1000
0100
0000
0001
0000
0100
0000
1000
0000
0010
0000
1010
0000
0110
0000
0101
0000
1001
0000
0000
0000
0010
0000
,
0001
0001
0010
0100
1000
2002
0000
0000
3003
0110
0000
0000
,
1000
0100
0010
0001
0000
0000
0100
1000
0100
0001
0010
0002
,
0203
0300
0202
0303
1000
0100
0020
0000
0000
0030
0001
0100
,
0020
0000
0000
0000
0030
0000
0101
0000
0000
0110
0000
0000
,
1010
0000
0100
0010
1000
0001
0100
0010
1000
0000
0010
0000
0220
0000
0000
0000
0000
0000
0000
0000
0000
0000
0000
0000
,
0000
0000
0000
0330
;
